<?xml version="1.0" standalone="no"?>
<!DOCTYPE svg PUBLIC "-//W3C//DTD SVG 1.1//EN" "http://www.w3.org/Graphics/SVG/1.1/DTD/svg11.dtd" >
<svg xmlns="http://www.w3.org/2000/svg" xmlns:xlink="http://www.w3.org/1999/xlink" version="1.1">
<metadata></metadata>
<defs>
<font id="futura_stdheavy" horiz-adv-x="1183" >
<font-face units-per-em="2048" ascent="1690" descent="-358" />
<missing-glyph horiz-adv-x="591" />
<glyph unicode="&#xfb01;" horiz-adv-x="1114" d="M16 764v242h97v294q0 96 21 176.5t64.5 145.5t118.5 102t175 37q77 0 137 -32v-256q-70 34 -117 34q-21 0 -37.5 -5t-28 -17t-20 -23t-13.5 -31.5t-8.5 -33.5t-4.5 -37t-1.5 -35t0 -35.5t0.5 -29.5v-254h230v-242h-230v-764h-286v764h-97zM684 1427q0 69 50 119.5 t120 50.5t120 -50.5t50 -119.5q0 -71 -50 -120.5t-120 -49.5t-120 49.5t-50 120.5zM711 0v1006h286v-1006h-286z" />
<glyph unicode="&#xfb02;" horiz-adv-x="1112" d="M16 764v242h97v294q0 96 21 176.5t64.5 145.5t118.5 102t175 37q77 0 137 -32v-256q-70 34 -117 34q-21 0 -37.5 -5t-28 -17t-20 -23t-13.5 -31.5t-8.5 -33.5t-4.5 -37t-1.5 -35t0 -35.5t0.5 -29.5v-254h230v-242h-230v-764h-286v764h-97zM723 0v1737h287v-1737h-287z " />
<glyph horiz-adv-x="0" />
<glyph horiz-adv-x="682" />
<glyph unicode=" "  horiz-adv-x="591" />
<glyph unicode="&#x09;" horiz-adv-x="591" />
<glyph unicode="&#xa0;" horiz-adv-x="591" />
<glyph unicode="!" horiz-adv-x="665" d="M150 143q0 75 53.5 128t128.5 53t128.5 -53t53.5 -128t-53.5 -129.5t-128.5 -54.5t-128.5 54.5t-53.5 129.5zM186 444v1100h291v-1100h-291z" />
<glyph unicode="&#x22;" horiz-adv-x="999" d="M180 1544h246l-37 -672h-172zM573 1544h246l-37 -672h-172z" />
<glyph unicode="#" d="M29 354v232h231l49 254h-196v231h239l80 416h217l-80 -416h207l80 416h215l-80 -416h164v-231h-201l-49 -254h193v-232h-242l-68 -354h-217l68 354h-207l-67 -354h-218l68 354h-186zM477 586h209l53 254h-213z" />
<glyph unicode="$" d="M111 293l182 176q49 -96 120.5 -157.5t166.5 -61.5q88 0 143 59.5t55 147.5q0 30 -7.5 55t-26 47t-34.5 37t-48.5 33.5t-52.5 28.5t-61.5 29t-60.5 28q-51 25 -86.5 45.5t-77 55.5t-67 73.5t-42.5 95.5t-17 125q0 171 93.5 288t258.5 148v191h149v-193 q104 -12 182.5 -53.5t143.5 -122.5l-137 -194q-43 57 -102.5 90.5t-125.5 33.5q-70 0 -122 -46t-52 -115q0 -30 13 -56.5t29.5 -44.5t50.5 -39t58.5 -33t71 -33.5t70.5 -33.5q50 -25 87.5 -48t78.5 -59.5t67 -77.5t43 -100.5t17 -130.5q0 -179 -100 -313t-273 -168v-205 h-149v195q-159 19 -259.5 89.5t-178.5 213.5z" />
<glyph unicode="%" horiz-adv-x="1581" d="M10 1219q0 159 104.5 262.5t262.5 103.5q157 0 261.5 -103.5t104.5 -262.5q0 -158 -104 -261.5t-262 -103.5t-262.5 103.5t-104.5 261.5zM213 1219q0 -76 46 -137.5t118 -61.5t118 61.5t46 137.5t-46 138t-118 62t-118 -62t-46 -138zM303 8l830 1589l139 -69l-828 -1591z M836 324q0 159 104.5 262.5t261.5 103.5q158 0 262.5 -103.5t104.5 -262.5q0 -158 -104.5 -261.5t-262.5 -103.5t-262 103.5t-104 261.5zM1038 324q0 -76 46 -137.5t118 -61.5t118 61.5t46 137.5t-46 138t-118 62t-118 -62t-46 -138z" />
<glyph unicode="&#x26;" horiz-adv-x="1437" d="M68 410q0 250 223 401l92 63q-125 174 -125 328q0 169 112.5 276t280.5 107q170 0 283 -105.5t113 -275.5q0 -206 -254 -373l215 -276l155 199l191 -179l-166 -223l266 -352h-367l-124 156q-225 -197 -443 -197q-195 0 -323.5 128t-128.5 323zM371 436q0 -76 55 -141.5 t129 -65.5q33 0 64.5 10.5t64 35t49.5 39.5t51 48l-239 322q-39 -29 -63.5 -50t-53 -53t-43 -68.5t-14.5 -76.5zM543 1227q0 -63 37 -115l73 -104l52 43q86 73 86 168q0 59 -32.5 105t-88.5 46q-59 0 -93 -42t-34 -101z" />
<glyph unicode="'" horiz-adv-x="606" d="M180 1544h246l-37 -672h-172z" />
<glyph unicode="(" horiz-adv-x="555" d="M152 676q0 269 51 542.5t155 485.5l177 -119q-168 -381 -168 -921q0 -242 41 -487t127 -433l-177 -121q-108 212 -157 491t-49 562z" />
<glyph unicode=")" horiz-adv-x="555" d="M20 -256q86 188 127 433t41 487q0 540 -168 921l177 119q104 -212 155 -485.5t51 -542.5q0 -283 -49 -562t-157 -491z" />
<glyph unicode="*" horiz-adv-x="854" d="M111 1307l71 137l164 -107l-6 207h176l-4 -207l158 107l73 -137l-165 -103l165 -102l-73 -137l-158 106l4 -203h-176l6 203l-160 -106l-73 137l161 102z" />
<glyph unicode="+" d="M68 403v242h403v404h242v-404h403v-242h-403v-403h-242v403h-403z" />
<glyph unicode="," horiz-adv-x="591" d="M53 -303l223 622l263 -28l-295 -617z" />
<glyph unicode="-" horiz-adv-x="675" d="M88 539v235h500v-235h-500z" />
<glyph unicode="." horiz-adv-x="591" d="M115 143q0 75 53.5 128t128.5 53t128.5 -53t53.5 -128t-53.5 -129.5t-128.5 -54.5t-128.5 54.5t-53.5 129.5z" />
<glyph unicode="/" horiz-adv-x="1103" d="M76 -260l753 1997l199 -72l-754 -1997z" />
<glyph unicode="0" d="M39 770q0 105 17 212.5t59 217.5t103 194t158 137.5t216 53.5t216 -53.5t158 -137.5t103 -194t59 -217.5t17 -212.5q0 -86 -13 -175t-39 -181.5t-71 -173t-104 -144t-143 -100.5t-183 -37t-183 37t-143 100.5t-104 144t-71 173t-39 181.5t-13 175zM334 774 q0 -54 6 -117.5t24 -143t45 -142.5t74.5 -106.5t108.5 -43.5t109 43.5t75 106.5t44.5 142.5t23.5 143t6 117.5q0 55 -6 118t-23.5 142t-44.5 141t-75 105t-109 43t-108.5 -42.5t-74.5 -105t-45 -141.5t-24 -142.5t-6 -117.5z" />
<glyph unicode="1" d="M297 1282v262h504v-1544h-301v1282h-203z" />
<glyph unicode="2" d="M57 0l394 496q146 181 204 267q131 196 131 310q0 92 -54.5 171t-143.5 79q-64 0 -110 -42.5t-65 -101t-16 -120.5h-319q10 152 69 268.5t172 187t267 70.5q140 0 254.5 -65t180.5 -179.5t66 -253.5q0 -82 -20.5 -158.5t-62 -148t-82.5 -127t-103 -127.5l-227 -264h506 v-262h-1041z" />
<glyph unicode="3" d="M63 446h304q5 -96 64.5 -160.5t156.5 -64.5q96 0 151.5 75t55.5 173q0 100 -60.5 176.5t-156.5 69.5l-56 -4v215h33q95 0 146 57t51 156q0 81 -48 138.5t-129 57.5q-75 0 -119.5 -58.5t-47.5 -135.5h-287q21 203 145.5 323.5t327.5 120.5q200 0 322 -118.5t122 -317.5 q0 -97 -36.5 -184.5t-110.5 -137.5q98 -43 148.5 -150.5t50.5 -225.5q0 -224 -145 -358t-370 -134q-211 0 -355.5 139t-156.5 348z" />
<glyph unicode="4" d="M6 272v136l688 1165h275v-1059h164v-242h-164v-272h-283v272h-680zM356 514h330v614h-4z" />
<glyph unicode="5" d="M66 164l90 258q63 -90 154.5 -145.5t193.5 -55.5q122 0 199 90t77 215q0 127 -87 217.5t-214 90.5q-65 0 -132.5 -28t-115.5 -73h-47l166 811h672v-262h-459l-53 -235l78 4q146 0 261 -74t175.5 -196t60.5 -267q0 -248 -156.5 -401.5t-404.5 -153.5q-277 0 -458 205z" />
<glyph unicode="6" d="M43 483q0 234 188 516l410 609l221 -160l-317 -449l4 -4q53 21 121 21q137 0 243 -73t160.5 -188.5t54.5 -250.5q0 -238 -153 -391.5t-391 -153.5q-231 0 -386 147.5t-155 376.5zM336 492q0 -110 69 -198.5t177 -88.5t175.5 88.5t67.5 198.5q0 112 -67.5 200t-175.5 88 q-73 0 -130.5 -43.5t-86.5 -108.5t-29 -136z" />
<glyph unicode="7" d="M88 1282v262h1104l-846 -1585l-248 141l637 1182h-647z" />
<glyph unicode="8" d="M92 412q0 138 63.5 242.5t186.5 150.5q-94 47 -148.5 140t-54.5 200q0 195 129.5 317.5t323.5 122.5t323 -122.5t129 -317.5q0 -108 -54 -200.5t-148 -139.5q123 -46 186.5 -150.5t63.5 -242.5q0 -135 -71 -240t-184.5 -159t-244.5 -54t-244.5 54t-184.5 159t-71 240z M395 444q0 -91 54 -163t143 -72t142.5 71.5t53.5 163.5q0 93 -53.5 165.5t-142.5 72.5t-143 -72.5t-54 -165.5zM414 1145q0 -83 49 -150t129 -67t129 67t49 150q0 82 -49 148.5t-129 66.5t-129 -66.5t-49 -148.5z" />
<glyph unicode="9" d="M53 1038q0 239 153.5 393t391.5 154q152 0 275 -66t194.5 -187t71.5 -273q0 -233 -189 -516l-409 -609l-222 162l318 449l-4 4q-57 -23 -121 -23q-103 0 -190.5 42.5t-145.5 113.5t-90.5 163.5t-32.5 192.5zM356 1051q0 -112 68 -200.5t176 -88.5t177 89t69 200 q0 71 -29 136t-86.5 108.5t-130.5 43.5q-108 0 -176 -88t-68 -200z" />
<glyph unicode=":" horiz-adv-x="591" d="M115 143q0 75 53.5 128t128.5 53t128.5 -53t53.5 -128t-53.5 -129.5t-128.5 -54.5t-128.5 54.5t-53.5 129.5zM115 881q0 75 53.5 127.5t128.5 52.5t128.5 -52.5t53.5 -127.5t-53.5 -130t-128.5 -55t-128.5 55t-53.5 130z" />
<glyph unicode=";" horiz-adv-x="591" d="M33 -303l223 622l262 -28l-295 -617zM197 881q0 75 53.5 127.5t128.5 52.5t128.5 -52.5t53.5 -127.5t-53.5 -130t-128.5 -55t-128.5 55t-53.5 130z" />
<glyph unicode="&#x3c;" d="M68 401v246l1048 373v-258l-665 -236v-4l665 -235v-258z" />
<glyph unicode="=" d="M68 162v241h1048v-241h-1048zM68 645v242h1048v-242h-1048z" />
<glyph unicode="&#x3e;" d="M68 29v258l665 235v4l-665 236v258l1048 -373v-246z" />
<glyph unicode="?" horiz-adv-x="997" d="M61 1143q-4 91 28.5 173.5t91.5 141t141 93t174 34.5q189 0 314.5 -125.5t125.5 -314.5q0 -152 -91.5 -270t-238.5 -152l-16 -197h-287v408q33 -8 74 -8q108 0 185 61.5t77 167.5q0 69 -37.5 124.5t-103.5 55.5q-65 0 -101.5 -50.5t-36.5 -117.5v-24h-299zM268 143 q0 75 54 128t129 53t128.5 -53t53.5 -128t-53.5 -129.5t-128.5 -54.5t-129 54.5t-54 129.5z" />
<glyph unicode="@" horiz-adv-x="1996" d="M252 772q0 227 104 414t283.5 293t394.5 106q288 0 482 -180q229 -199 229 -475q0 -130 -33 -244.5t-94 -193.5q-70 -94 -153.5 -139t-161.5 -42q-43 2 -72.5 35.5t-38.5 91.5q-127 -127 -279 -127q-137 0 -240.5 112.5t-103.5 270.5q0 126 50.5 237.5t148 183 t219.5 71.5q162 0 273 -148l28 129h146l-103 -532l-3 -15q-7 -36 -10 -56t-3.5 -48.5t11 -42.5t34.5 -14q47 0 95.5 55t81 149t32.5 193q0 255 -151 404t-390 149q-127 0 -238.5 -49.5t-191 -134.5t-125 -203t-45.5 -250q0 -185 89 -332t236 -226t322 -79q247 0 369 88 l153 -123q-129 -71 -248 -106t-302 -35q-163 0 -309.5 61.5t-253.5 168.5t-169.5 259t-62.5 324zM745 709q0 -97 49 -159.5t140 -62.5q128 0 193.5 75.5t80.5 199.5q15 122 -42 185t-167 63q-118 0 -186 -89.5t-68 -211.5z" />
<glyph unicode="A" horiz-adv-x="1384" d="M-18 0l602 1585h233l586 -1585h-322l-118 326h-537l-127 -326h-317zM512 571h367l-193 562h-4z" />
<glyph unicode="B" horiz-adv-x="1132" d="M111 0v1544h374q225 0 344 -99t119 -321q0 -91 -33.5 -173.5t-101.5 -125.5q87 -16 148.5 -77.5t88.5 -141t27 -168.5q0 -111 -37 -196t-104.5 -137t-156 -78.5t-195.5 -26.5h-473zM412 242h63q56 0 94.5 3.5t80.5 16.5t67.5 36t42 65t16.5 100q0 42 -10 75t-25.5 54.5 t-41.5 37t-49.5 23.5t-60 12.5t-62.5 5.5t-66 1h-49v-430zM412 901h37q116 0 167.5 43.5t51.5 159.5q0 111 -56 155t-161 44h-39v-402z" />
<glyph unicode="C" horiz-adv-x="1230" d="M37 760q0 163 56 313.5t154.5 263.5t242 180.5t309.5 67.5q180 0 344 -90v-360q-63 77 -153 120t-187 43q-105 0 -192.5 -45.5t-144 -121t-87.5 -170t-31 -195.5q0 -132 53.5 -249.5t159 -194t240.5 -76.5q94 0 185.5 45t156.5 119v-359q-196 -92 -350 -92 q-159 0 -300.5 65.5t-241 175t-157 256t-57.5 304.5z" />
<glyph unicode="D" horiz-adv-x="1323" d="M111 0v1544h430q219 0 389.5 -101.5t263 -277.5t92.5 -395q0 -161 -55.5 -303t-152.5 -245t-237 -162.5t-302 -59.5h-428zM412 262h49q136 0 236 36.5t160.5 105t89 160t28.5 208.5q0 253 -129 381.5t-385 128.5h-49v-1020z" />
<glyph unicode="E" horiz-adv-x="999" d="M111 0v1544h798v-262h-497v-340h479v-262h-479v-418h497v-262h-798z" />
<glyph unicode="F" horiz-adv-x="948" d="M111 0v1544h766v-262h-465v-340h436v-262h-436v-680h-301z" />
<glyph unicode="G" horiz-adv-x="1513" d="M37 766q0 131 33.5 253.5t99.5 225t156 179t210 119t255 42.5q198 0 360 -96.5t250 -271.5l-266 -144q-48 108 -142.5 177t-210.5 69q-84 0 -156.5 -33t-122.5 -88t-85.5 -127t-52.5 -149.5t-17 -155.5t17 -154.5t53 -146.5t86.5 -123.5t123 -85t156.5 -31.5 q140 0 244 104.5t109 245.5h-328v246h666v-39q0 -133 -26.5 -253t-83.5 -224.5t-138.5 -181t-198 -120.5t-256.5 -44q-132 0 -249 43t-205 119t-152 177t-96.5 221t-32.5 247z" />
<glyph unicode="H" horiz-adv-x="1380" d="M111 0v1544h301v-608h557v608h301v-1544h-301v690h-557v-690h-301z" />
<glyph unicode="I" horiz-adv-x="520" d="M111 0v1544h301v-1544h-301z" />
<glyph unicode="J" horiz-adv-x="796" d="M-45 104l192 222q11 -36 46.5 -68.5t70.5 -32.5q24 0 43 8t32.5 25t23.5 35t15.5 46t9 48.5t4.5 53t1.5 49.5t0 47t-0.5 38v969h301v-1020q0 -133 -16 -219.5t-74 -171.5q-59 -86 -149 -130t-197 -44q-81 0 -162 40.5t-141 104.5z" />
<glyph unicode="K" horiz-adv-x="1269" d="M111 0v1544h301v-651h4l477 651h371l-586 -713l618 -831h-387l-493 694h-4v-694h-301z" />
<glyph unicode="L" horiz-adv-x="823" d="M111 0v1544h301v-1282h426v-262h-727z" />
<glyph unicode="M" horiz-adv-x="1712" d="M23 0l260 1585h213l381 -1018l364 1018h217l232 -1585h-304l-122 958h-4l-351 -978h-104l-338 978h-4l-137 -958h-303z" />
<glyph unicode="N" horiz-adv-x="1554" d="M111 0v1585h217l813 -1079h4v1038h301v-1575h-217l-813 1080h-4v-1049h-301z" />
<glyph unicode="O" horiz-adv-x="1601" d="M37 774q0 229 94 413t269 291t401 107t401 -107t269 -291t94 -413q0 -170 -54 -319t-151 -259t-241.5 -173.5t-317.5 -63.5t-317.5 63.5t-241.5 173.5t-151 259t-54 319zM348 786q0 -75 14.5 -147t49 -142t85.5 -123t129.5 -85.5t174.5 -32.5t174.5 32.5t129 85.5t85 123 t49 142t14.5 147q0 95 -31 184t-87.5 160.5t-143.5 114.5t-190 43q-83 0 -156 -28t-126.5 -76.5t-92.5 -112.5t-58.5 -137t-19.5 -148z" />
<glyph unicode="P" horiz-adv-x="1081" d="M111 0v1544h409q535 0 535 -479q0 -243 -127 -365t-367 -122h-149v-578h-301zM412 827h61q72 0 119 9.5t84.5 35t54.5 73.5t17 122q0 72 -19.5 119t-60.5 69.5t-87 30.5t-116 8h-53v-467z" />
<glyph unicode="Q" horiz-adv-x="1601" d="M37 774q0 107 25.5 210t72 192.5t115.5 165t152.5 129.5t185.5 84t213 30t213 -30t185.5 -84t152.5 -129.5t115.5 -165t72 -192.5t25.5 -210q0 -322 -183 -559l211 -250l-303 -31l-106 129q-155 -104 -383 -104q-165 0 -309 65.5t-243 176t-155.5 260t-56.5 313.5z M348 756q0 -97 30 -187t85.5 -161.5t143 -114.5t194.5 -43q40 0 85 15t77 36l-254 293l311 24l137 -155q48 59 72 146t24 173q0 127 -55.5 244t-161 194.5t-235.5 77.5q-85 0 -159 -31t-127 -83.5t-91.5 -122t-57 -147t-18.5 -158.5z" />
<glyph unicode="R" horiz-adv-x="1142" d="M111 0v1544h407q117 0 210 -26.5t162 -81.5t106.5 -145.5t37.5 -211.5q0 -101 -34.5 -190.5t-107.5 -155t-173 -82.5l436 -651h-364l-375 623h-4v-623h-301zM412 834h39q136 0 209 52.5t73 184.5q0 69 -20.5 115.5t-60.5 70t-87 32.5t-112 9h-41v-464z" />
<glyph unicode="S" horiz-adv-x="1077" d="M47 260l195 191q32 -94 108.5 -160t169.5 -66q89 0 144 65.5t55 158.5q0 43 -15.5 78.5t-35 57.5t-58.5 44.5t-62.5 32.5t-70.5 28q-6 2 -9 3.5t-8 3t-9 3.5q-82 34 -139 68t-107 83t-74.5 116.5t-24.5 154.5q0 194 129 328.5t322 134.5q107 0 230.5 -48.5t191.5 -123.5 l-141 -209q-93 127 -232 127q-74 0 -131 -50.5t-57 -123.5q0 -52 34 -91t87.5 -65.5t119 -52.5t131 -62.5t119 -84t87.5 -128.5t34 -186q0 -235 -137.5 -381.5t-370.5 -146.5q-296 0 -475 301z" />
<glyph unicode="T" horiz-adv-x="923" d="M0 1282v262h924v-262h-312v-1282h-301v1282h-311z" />
<glyph unicode="U" horiz-adv-x="1351" d="M102 621v923h301v-864q0 -48 1.5 -85.5t8 -88t17.5 -87.5t31.5 -76.5t48.5 -64.5t70.5 -41t95.5 -16t95.5 16t70.5 41t48.5 64.5t31.5 76.5t17 87.5t7.5 87.5t1.5 86v864h301v-923q0 -116 -19.5 -214t-63 -181.5t-109.5 -142t-162.5 -91.5t-218.5 -33t-218.5 33 t-162.5 91.5t-110 142t-63.5 181.5t-19.5 214z" />
<glyph unicode="V" horiz-adv-x="1308" d="M-29 1544h324l371 -1040h4l344 1040h323l-600 -1585h-176z" />
<glyph unicode="W" horiz-adv-x="2000" d="M-29 1544h316l311 -1052h4l307 1073h178l320 -1073h4l303 1052h316l-523 -1575h-221l-307 1010h-4l-291 -1010h-221z" />
<glyph unicode="X" horiz-adv-x="1275" d="M-16 0l493 817l-416 727h357l246 -479l225 479h356l-428 -727l475 -817h-350l-311 565l-295 -565h-352z" />
<glyph unicode="Y" horiz-adv-x="1202" d="M-33 1544h350l271 -536l295 536h352l-487 -835v-709h-302v709z" />
<glyph unicode="Z" horiz-adv-x="1177" d="M10 0l680 1282h-575v262h1052l-678 -1282h641v-262h-1120z" />
<glyph unicode="[" horiz-adv-x="589" d="M92 -186v1917h406v-187h-189v-1544h189v-186h-406z" />
<glyph unicode="\" horiz-adv-x="1103" d="M61 1737h230l753 -1737h-229z" />
<glyph unicode="]" horiz-adv-x="589" d="M92 0h189v1544h-189v187h406v-1917h-406v186z" />
<glyph unicode="^" d="M68 674l395 870h254l399 -870h-264l-260 579l-260 -579h-264z" />
<glyph unicode="_" horiz-adv-x="1024" d="M0 -154h1024v-102h-1024v102z" />
<glyph unicode="`" horiz-adv-x="778" d="M162 1458l209 127l245 -344l-145 -90z" />
<glyph unicode="a" horiz-adv-x="1157" d="M31 508q0 136 53 255t159.5 197t245.5 78q79 0 154 -33t127 -94v95h283v-1006h-283v92h-4q-45 -59 -118.5 -92t-153.5 -33q-107 0 -196 46t-146.5 122.5t-89 173t-31.5 199.5zM322 504q0 -69 28 -133t83.5 -107t125.5 -43q105 0 172.5 87.5t67.5 195.5t-67.5 194 t-172.5 86t-171 -86t-66 -194z" />
<glyph unicode="b" horiz-adv-x="1157" d="M102 0v1737h287v-824q49 58 124 91.5t155 33.5q103 0 191 -45.5t145.5 -120.5t89.5 -169.5t32 -194.5q0 -104 -31.5 -200.5t-88.5 -172.5t-146.5 -122t-197.5 -46q-79 0 -153 33.5t-116 93.5h-4v-94h-287zM360 504q0 -108 66.5 -195.5t171.5 -87.5t171.5 87.5t66.5 195.5 t-66.5 194t-171.5 86t-171.5 -86t-66.5 -194z" />
<glyph unicode="c" horiz-adv-x="862" d="M31 500q0 148 66.5 271t187 195t268.5 72q130 0 233 -63v-277q-99 99 -211 99q-115 0 -184 -90.5t-69 -208.5q0 -122 72 -205.5t192 -83.5q114 0 200 96v-276q-112 -62 -247 -62q-145 0 -262.5 73t-181.5 194.5t-64 265.5z" />
<glyph unicode="d" horiz-adv-x="1157" d="M31 508q0 136 53 255t159.5 197t245.5 78q80 0 154.5 -33t120.5 -92h4v824h287v-1737h-287v94h-4q-43 -60 -116.5 -93.5t-153.5 -33.5q-107 0 -196 46t-146.5 122.5t-89 173t-31.5 199.5zM322 504q0 -69 28 -133t83.5 -107t125.5 -43q105 0 171.5 87.5t66.5 195.5 t-66.5 194t-171.5 86t-171 -86t-66 -194z" />
<glyph unicode="e" horiz-adv-x="1026" d="M31 494q0 116 31 214t90 172t153 116t213 42q120 0 213 -42.5t150 -117.5t85.5 -172.5t28.5 -213.5v-35h-661q0 -51 10.5 -96.5t32 -86t61.5 -64.5t94 -24q126 0 193 138l264 -43q-52 -149 -174.5 -231.5t-282.5 -82.5q-115 0 -209.5 39.5t-158 109.5t-98.5 167t-35 211z M342 635h383q-11 84 -61.5 143.5t-128.5 59.5q-81 0 -131.5 -59t-61.5 -144z" />
<glyph unicode="f" horiz-adv-x="620" d="M16 764v242h97v294q0 96 21 176.5t64.5 145.5t118.5 102t175 37q77 0 137 -32v-256q-70 34 -117 34q-21 0 -37.5 -5t-28 -17t-20 -23t-13.5 -31.5t-8.5 -33.5t-4.5 -37t-1.5 -35t0 -35.5t0.5 -29.5v-254h230v-242h-230v-764h-286v764h-97z" />
<glyph unicode="g" horiz-adv-x="1150" d="M31 496q0 83 19.5 162t59 148t94.5 120.5t131 81.5t163 30q75 0 146 -35.5t114 -93.5h4v97h287v-945q0 -598 -488 -598q-126 0 -237.5 47.5t-187.5 144.5t-83 226h303q11 -80 64.5 -128t134.5 -48q42 0 75 11t54.5 27t37 44.5t23 53t12 63.5t5 64.5t0.5 66.5v65h-4 q-45 -61 -120 -97t-155 -36q-107 0 -194.5 44.5t-142.5 119t-85 168.5t-30 197zM322 502q0 -108 66 -194.5t171 -86.5t171.5 86.5t66.5 194.5t-66.5 195t-171.5 87t-171 -87t-66 -195z" />
<glyph unicode="h" horiz-adv-x="1105" d="M102 0v1737h287v-815h4q42 59 111.5 87.5t150.5 28.5q349 0 349 -424v-614h-287v532q0 123 -13 170q-29 107 -143 107q-35 0 -63 -11.5t-45.5 -28t-30.5 -45.5t-19 -52.5t-9.5 -60t-4 -57.5t-0.5 -56v-498h-287z" />
<glyph unicode="i" horiz-adv-x="518" d="M90 1427q0 69 50 119.5t120 50.5t120 -50.5t50 -119.5q0 -71 -50 -120.5t-120 -49.5t-120 49.5t-50 120.5zM117 0v1006h286v-1006h-286z" />
<glyph unicode="j" horiz-adv-x="518" d="M90 1427q0 69 50 119.5t120 50.5t120 -50.5t50 -119.5q0 -71 -50 -120.5t-120 -49.5t-120 49.5t-50 120.5zM117 -537v1543h286v-1543h-286z" />
<glyph unicode="k" horiz-adv-x="1077" d="M102 0v1737h287v-1100h4l301 369h373l-424 -443l457 -563h-377l-330 428h-4v-428h-287z" />
<glyph unicode="l" horiz-adv-x="489" d="M102 0v1737h287v-1737h-287z" />
<glyph unicode="m" horiz-adv-x="1642" d="M102 0v1006h287v-91h4q40 58 107.5 90.5t138.5 32.5q191 0 289 -157q45 73 124.5 115t168.5 42q92 0 157 -32.5t99 -92t48.5 -129t14.5 -157.5v-627h-287v528q0 128 -16 182q-31 98 -119 99q-32 0 -57.5 -13t-41 -30t-27 -49t-16.5 -54.5t-8 -62t-3 -55.5v-51v-494h-287 v510q0 119 -7 161q-23 138 -130 138q-32 0 -56.5 -12t-40.5 -28t-27 -45t-16.5 -50.5t-8.5 -58.5t-3 -54.5v-51.5v-15v-494h-287z" />
<glyph unicode="n" horiz-adv-x="1105" d="M102 0v1006h287v-93h4q82 125 262 125q349 0 349 -424v-614h-287v532q0 123 -13 170q-29 107 -143 107q-35 0 -63 -11.5t-45.5 -28t-30.5 -45.5t-19 -52.5t-9.5 -60t-4 -57.5t-0.5 -56v-498h-287z" />
<glyph unicode="o" horiz-adv-x="1122" d="M33 502q0 236 147 386t381 150t381.5 -150.5t147.5 -385.5t-147 -385t-382 -150t-381.5 150t-146.5 385zM324 502q0 -108 66 -194.5t171 -86.5t171.5 86.5t66.5 194.5q0 111 -66.5 196.5t-171.5 85.5t-171 -85.5t-66 -196.5z" />
<glyph unicode="p" horiz-adv-x="1157" d="M102 -537v1543h287v-93q49 58 124 91.5t155 33.5q103 0 191 -45.5t145.5 -120.5t89.5 -169.5t32 -194.5q0 -104 -31.5 -200.5t-88.5 -172.5t-146.5 -122t-197.5 -46q-79 0 -153 33.5t-116 93.5h-4v-631h-287zM360 504q0 -108 66.5 -195.5t171.5 -87.5t171.5 87.5 t66.5 195.5t-66.5 194t-171.5 86t-171.5 -86t-66.5 -194z" />
<glyph unicode="q" horiz-adv-x="1157" d="M31 508q0 136 53 255t159.5 197t245.5 78q80 0 154.5 -33t120.5 -92h4v93h287v-1543h-287v631h-4q-43 -60 -116.5 -93.5t-153.5 -33.5q-107 0 -196 46t-146.5 122.5t-89 173t-31.5 199.5zM322 504q0 -69 28 -133t83.5 -107t125.5 -43q105 0 171.5 87.5t66.5 195.5 t-66.5 194t-171.5 86t-171 -86t-66 -194z" />
<glyph unicode="r" horiz-adv-x="751" d="M102 0v1006h287v-105h4q89 137 250 137q56 0 119 -24l-35 -266q-50 36 -119 36q-57 0 -99 -20.5t-64.5 -50.5t-35.5 -77t-16.5 -88t-3.5 -95v-453h-287z" />
<glyph unicode="s" horiz-adv-x="839" d="M41 135l131 170q105 -117 213 -117q48 0 81.5 30.5t33.5 78.5q0 21 -8.5 39t-20.5 30t-35 24.5t-40 19.5t-48.5 19.5t-48.5 19.5q-44 19 -74.5 37.5t-62.5 49t-48 75t-16 102.5q0 142 90 233.5t230 91.5q86 0 175.5 -26.5t147.5 -77.5l-123 -166q-74 70 -151 70 q-36 0 -65 -25t-29 -61q0 -21 10.5 -38t34 -31t44 -23t59 -24t59.5 -24q44 -19 77 -40.5t64.5 -54.5t48 -82t16.5 -111q0 -162 -113.5 -259.5t-277.5 -97.5q-101 0 -194.5 44.5t-159.5 123.5z" />
<glyph unicode="t" horiz-adv-x="561" d="M39 764v242h98v340h287v-340h176v-242h-176v-764h-287v764h-98z" />
<glyph unicode="u" horiz-adv-x="1095" d="M96 414v592h287v-545q0 -39 3 -70.5t13 -67t27.5 -59.5t48 -39.5t72.5 -15.5t72.5 15.5t48 39.5t27.5 59.5t13 67t3 70.5v545h286v-592q0 -220 -113.5 -333.5t-336.5 -113.5q-224 0 -337.5 113.5t-113.5 333.5z" />
<glyph unicode="v" horiz-adv-x="999" d="M-37 1006h316l235 -568l207 568h313l-463 -1026h-147z" />
<glyph unicode="w" horiz-adv-x="1603" d="M-37 1006h313l209 -580l246 612h137l248 -620l213 588h311l-466 -1026h-146l-215 612l-240 -612h-147z" />
<glyph unicode="x" horiz-adv-x="1124" d="M-37 0l430 547l-346 459h348l187 -261l159 261h353l-357 -459l424 -547h-352l-258 350l-232 -350h-356z" />
<glyph unicode="y" horiz-adv-x="1064" d="M-37 1006h326l239 -572l258 572h320l-731 -1543h-316l332 691z" />
<glyph unicode="z" horiz-adv-x="985" d="M-2 0l514 764h-434v242h907l-510 -764h477v-242h-954z" />
<glyph unicode="{" horiz-adv-x="796" d="M139 614v150q154 68 154 309v373q0 112 60 191t114 79h188v-186h-82q-18 0 -30.5 -7.5t-19 -17t-9.5 -29.5t-3.5 -33t-0.5 -40v-363q0 -82 -19.5 -150t-49.5 -109.5t-50 -61t-37 -31.5q16 -10 36.5 -30t50.5 -60.5t49.5 -109t19.5 -150.5v-363q0 -27 0.5 -40t3.5 -33 t9.5 -29.5t19 -17t30.5 -7.5h82v-186h-188q-54 0 -114 79t-60 191v373q0 241 -154 309z" />
<glyph unicode="|" horiz-adv-x="1101" d="M430 -438v2048h242v-2048h-242z" />
<glyph unicode="}" horiz-adv-x="796" d="M141 -152h82q18 0 30.5 7.5t19 17t10 29t4 33.5t0.5 40v363q0 82 19.5 150.5t49 109t50 61t36.5 29.5q-13 8 -27 20.5t-38.5 43.5t-43 67.5t-32.5 95t-14 125.5v363q0 26 -0.5 40t-4 33.5t-10 29t-19 17t-30.5 7.5h-82v186h189q54 0 114 -79t60 -191v-373 q0 -241 153 -309v-150q-153 -68 -153 -309v-373q0 -112 -60 -191t-114 -79h-189v186z" />
<glyph unicode="~" d="M68 487q16 21 46.5 67.5t56 81t58.5 71t72 57t80 20.5q96 0 229 -104q45 -39 99.5 -67.5t93.5 -28.5q22 0 46 31t38 62.5t26 65.5l203 -184q-20 -36 -29.5 -52.5t-33.5 -53.5t-40 -57t-43 -48.5t-50.5 -43.5t-54 -26.5t-60.5 -11.5q-21 0 -43.5 4.5t-37.5 9.5t-39 17.5 t-33 17.5t-35.5 21.5t-30.5 19.5q-21 13 -70 47t-77.5 48t-53.5 14q-48 0 -115 -158z" />
<glyph unicode="&#xa1;" horiz-adv-x="665" d="M150 872q0 75 53.5 128t128.5 53t128.5 -53t53.5 -128t-53.5 -129.5t-128.5 -54.5t-128.5 54.5t-53.5 129.5zM186 -541v1100h291v-1100h-291z" />
<glyph unicode="&#xa2;" d="M215 776q0 208 115.5 358t316.5 177v172h150v-178q114 -20 170 -52v-288q-48 54 -94.5 78t-112.5 24q-116 0 -185 -88.5t-69 -208.5q0 -118 70 -201.5t186 -83.5q60 0 114.5 28t86.5 75h4v-289q-76 -41 -170 -51v-191h-150v187q-99 8 -182 56.5t-136.5 122.5t-83.5 165 t-30 188z" />
<glyph unicode="&#xa3;" d="M20 39q18 57 43 105.5t61 93t86 71.5t109 29q23 64 23 121q0 90 -45 172h-268v135h190q-36 72 -60 157t-24 156q0 222 148 364t370 142q464 0 488 -528l-301 -35l4 70q5 88 -53.5 164.5t-145.5 76.5q-101 0 -157 -79t-56 -183q0 -69 22.5 -136t63.5 -149l10 -20h279v-135 h-229q11 -70 8 -160q-1 -26 -4 -78.5t-4 -77.5l137 -55q81 -33 129 -33q78 0 112 121l213 -45q-17 -68 -40 -121t-59 -100t-91 -72.5t-125 -25.5q-88 0 -244 59q-152 59 -229 59q-50 0 -86 -27t-51 -75z" />
<glyph unicode="&#xa4;" d="M25 227l122 113q-77 116 -77 274q0 159 77 275l-122 112l151 152l127 -117q111 90 289 90t289 -90l127 117l151 -152l-123 -112q78 -118 78 -275q0 -156 -78 -274l123 -113l-151 -151l-127 117q-112 -91 -289 -91t-289 91l-127 -117zM266 614q0 -132 94 -223.5t232 -91.5 q137 0 231.5 91.5t94.5 223.5q0 139 -92 227.5t-234 88.5t-234 -88.5t-92 -227.5z" />
<glyph unicode="&#xa5;" d="M-43 1544h350l283 -536l284 536h351l-357 -624h275v-136h-359l-43 -75v-74h402v-135h-402v-500h-301v500h-401v135h401v74l-49 75h-352v136h274z" />
<glyph unicode="&#xa6;" horiz-adv-x="1101" d="M430 -182v512h242v-512h-242zM430 842v512h242v-512h-242z" />
<glyph unicode="&#xa7;" horiz-adv-x="1181" d="M82 817q0 186 151 334q-67 98 -67 229q0 170 118 275.5t291 105.5q111 0 201.5 -41.5t148 -124.5t62.5 -194h-256q-8 64 -49.5 106.5t-106.5 42.5q-57 0 -91.5 -45.5t-34.5 -105.5q0 -30 11 -56.5t23.5 -43.5t40.5 -37.5t42.5 -29t49.5 -28.5l220 -123 q67 -37 106.5 -64.5t80 -69t59 -94t18.5 -120.5q0 -90 -39 -177.5t-105 -149.5q40 -47 61 -116t21 -136q0 -185 -126 -304.5t-328 -119.5q-139 0 -249.5 56t-174 165t-56.5 252h283q-2 -94 53.5 -168t147.5 -74q73 0 119.5 54t46.5 128q0 31 -11.5 58t-24 43.5t-42 38 t-43.5 29.5t-51 28l-273 147q-115 63 -171 136.5t-56 193.5zM338 879q0 -15 2.5 -29t5 -24.5t10 -22t11.5 -18.5t15.5 -17t16 -14.5t20 -14.5t20 -12.5t22.5 -13.5t22 -13l285 -174q35 29 55.5 72.5t20.5 87.5q0 41 -18.5 72.5t-41 48.5t-61.5 41q-3 2 -5 3t-4.5 2.5 t-4.5 2.5l-289 178q-36 -27 -59 -69.5t-23 -85.5z" />
<glyph unicode="&#xa8;" horiz-adv-x="819" d="M31 1397q0 67 48.5 115.5t115.5 48.5t115 -48t48 -116t-48 -116t-115 -48t-115.5 48.5t-48.5 115.5zM463 1397q0 67 48.5 115.5t115.5 48.5t115.5 -48.5t48.5 -115.5t-48.5 -115.5t-115.5 -48.5t-115.5 48.5t-48.5 115.5z" />
<glyph unicode="&#xa9;" horiz-adv-x="1638" d="M12 772q0 167 63 317.5t170.5 259t257.5 172.5t316 64t316 -64t257.5 -172.5t170.5 -259t63 -317.5t-63 -317.5t-170.5 -259t-257.5 -172.5t-316 -64t-316 64t-257.5 172.5t-170.5 259t-63 317.5zM188 772q0 -178 85 -324.5t229.5 -229.5t316.5 -83t316.5 83t229.5 229.5 t85 324.5q0 179 -85 325.5t-229.5 229t-316.5 82.5t-316.5 -82.5t-229.5 -229t-85 -325.5zM362 778q0 133 58.5 246.5t164 181.5t234.5 68q165 0 275 -92.5t139 -241.5h-180q-18 77 -85.5 117.5t-148.5 40.5q-121 0 -200.5 -97t-79.5 -223t79.5 -222.5t200.5 -96.5 q81 0 148.5 40t85.5 117h180q-28 -149 -138.5 -241t-275.5 -92q-129 0 -234.5 67.5t-164 181t-58.5 246.5z" />
<glyph unicode="&#xaa;" horiz-adv-x="694" d="M16 1266q0 127 82 223t217 96q52 0 101 -20t82 -56v56h182v-602h-182v55h-4q-29 -36 -77 -56t-100 -20q-92 0 -162.5 48t-104.5 120.5t-34 155.5zM205 1264q0 -65 43.5 -117.5t111.5 -52.5t112 53t44 117q0 66 -43.5 118t-112.5 52t-112 -52t-43 -118z" />
<glyph unicode="&#xab;" horiz-adv-x="1052" d="M37 655l325 498l177 -115l-254 -383l256 -372l-179 -119zM446 655l326 498l176 -115l-254 -383l256 -372l-178 -119z" />
<glyph unicode="&#xac;" d="M68 645v242h1048v-596h-242v354h-806z" />
<glyph unicode="&#xad;" horiz-adv-x="675" d="M88 539v235h500v-235h-500z" />
<glyph unicode="&#xae;" horiz-adv-x="1638" d="M12 772q0 167 63 317.5t170.5 259t257.5 172.5t316 64t316 -64t257.5 -172.5t170.5 -259t63 -317.5t-63 -317.5t-170.5 -259t-257.5 -172.5t-316 -64t-316 64t-257.5 172.5t-170.5 259t-63 317.5zM188 772q0 -178 85 -324.5t229.5 -229.5t316.5 -83t316.5 83t229.5 229.5 t85 324.5q0 179 -85 325.5t-229.5 229t-316.5 82.5t-316.5 -82.5t-229.5 -229t-85 -325.5zM481 354v844h410q64 0 109.5 -5.5t89.5 -21.5t70.5 -44t42.5 -75t16 -112q0 -116 -58.5 -179t-171.5 -71l205 -336h-193l-196 336h-148v-336h-176zM657 842h238q77 0 114.5 23.5 t37.5 88.5q0 22 -8 38.5t-25 26.5t-33 16t-42.5 8.5t-43 3t-43.5 0.5h-195v-205z" />
<glyph unicode="&#xaf;" horiz-adv-x="819" d="M18 1364v180h783v-180h-783z" />
<glyph unicode="&#xb0;" horiz-adv-x="819" d="M102 1278q-1 126 89.5 216.5t218.5 90.5q126 0 216.5 -90.5t90.5 -216.5q0 -127 -90.5 -217t-216.5 -90q-128 0 -218 90t-90 217zM242 1278q2 -71 51 -119.5t119 -48.5q69 0 117.5 49t48.5 119q0 69 -50 118.5t-120 49.5q-69 0 -118 -49.5t-48 -118.5z" />
<glyph unicode="&#xb1;" d="M68 0v242h1048v-242h-1048zM68 696v242h403v352h242v-352h403v-242h-403v-352h-242v352h-403z" />
<glyph unicode="&#xb2;" horiz-adv-x="708" d="M16 618l256 297q4 5 25.5 29.5t30.5 36t30.5 37.5t33 42t29.5 41t28 43.5t20.5 40.5t15 41t4.5 36q0 67 -34 109t-95 42t-93 -50t-29 -110h-207q9 140 94.5 228t234.5 88q137 0 231.5 -85.5t94.5 -211.5q0 -93 -45 -171t-129 -167l-147 -158h327v-158h-676z" />
<glyph unicode="&#xb3;" horiz-adv-x="708" d="M23 903h196q3 -58 42 -96.5t101 -38.5t99 44.5t37 102.5q0 60 -39.5 106t-102.5 42l-37 -2v129h23q61 0 94 35t33 94q0 48 -31 82.5t-84 34.5q-49 0 -77.5 -35t-30.5 -82h-187q12 122 93.5 194t214.5 72q130 0 209 -70.5t79 -189.5q0 -58 -24 -111.5t-72 -83.5 q64 -26 96.5 -90t32.5 -135q0 -134 -93.5 -214.5t-240.5 -80.5q-137 0 -230 83.5t-101 209.5z" />
<glyph unicode="&#xb4;" horiz-adv-x="778" d="M162 1241l246 344l208 -127l-309 -307z" />
<glyph unicode="&#xb5;" horiz-adv-x="1095" d="M96 -537v1543h287v-545q0 -39 3 -70.5t13 -67t27.5 -59.5t48 -39.5t72.5 -15.5t72.5 15.5t48 39.5t27.5 59.5t13 67t3 70.5v545h286v-592q0 -220 -113.5 -333.5t-336.5 -113.5q-12 0 -23 1t-20.5 2.5t-19.5 4.5t-17 5.5t-16 7t-14.5 7t-14.5 8.5t-13 8.5t-13.5 9 t-12.5 8.5v-566h-287z" />
<glyph unicode="&#xb6;" horiz-adv-x="1181" d="M43 1018q-7 92 23.5 186.5t88 169.5t144 122.5t184.5 47.5h660v-192h-125v-1665h-213v1665h-127v-1665h-213v893q-176 0 -291.5 117t-130.5 321z" />
<glyph unicode="&#xb7;" horiz-adv-x="591" d="M115 526q0 75 53.5 128t128.5 53t128.5 -53t53.5 -128t-53.5 -129.5t-128.5 -54.5t-128.5 54.5t-53.5 129.5z" />
<glyph unicode="&#xb8;" horiz-adv-x="778" d="M195 -344l200 303l189 -96l-238 -285z" />
<glyph unicode="&#xb9;" horiz-adv-x="708" d="M190 1389v155h328v-926h-196v771h-132z" />
<glyph unicode="&#xba;" horiz-adv-x="694" d="M4 1264q0 140 96 230.5t248 90.5t248 -90.5t96 -230.5q0 -142 -95.5 -232t-248.5 -90t-248.5 90t-95.5 232zM195 1266q0 -66 42.5 -119t110.5 -53t111 53t43 119t-42.5 117t-111.5 51q-68 0 -110.5 -51t-42.5 -117z" />
<glyph unicode="&#xbb;" horiz-adv-x="1052" d="M102 283l256 372l-254 383l177 115l325 -498l-325 -491zM512 283l256 372l-254 383l176 115l326 -498l-326 -491z" />
<glyph unicode="&#xbc;" horiz-adv-x="1775" d="M82 1389v155h328v-926h-197v771h-131zM365 8l829 1589l139 -69l-827 -1591zM963 164v80l446 700h178v-635h107v-145h-107v-164h-184v164h-440zM1188 309h215v369h-4z" />
<glyph unicode="&#xbd;" horiz-adv-x="1775" d="M82 1389v155h328v-926h-197v771h-131zM270 8l830 1589l139 -69l-827 -1591zM1018 0l256 297q3 4 28.5 33.5t35.5 41.5t34.5 42.5t36.5 48t31 46t28 49t16 43.5t7 42q0 67 -34 109.5t-95 42.5t-93.5 -50.5t-29.5 -109.5h-207q9 140 94.5 227.5t235.5 87.5 q137 0 231.5 -85.5t94.5 -211.5q0 -93 -45.5 -170.5t-129.5 -167.5l-147 -157h328v-158h-676z" />
<glyph unicode="&#xbe;" horiz-adv-x="1775" d="M82 903h197q3 -58 42 -96.5t101 -38.5t98.5 44.5t36.5 102.5q0 60 -39.5 106t-101.5 42l-37 -2v129h22q61 0 94 35t33 94q0 49 -30.5 83t-83.5 34q-49 0 -78 -35t-31 -82h-186q12 122 93 194t214 72q130 0 209.5 -70.5t79.5 -189.5q0 -58 -24.5 -111t-72.5 -84 q64 -26 97 -90.5t33 -134.5q0 -134 -93.5 -214.5t-240.5 -80.5q-137 0 -230.5 84t-101.5 209zM471 8l829 1589l140 -69l-828 -1591zM963 164v80l446 700h178v-635h107v-145h-107v-164h-184v164h-440zM1188 309h215v369h-4z" />
<glyph unicode="&#xbf;" horiz-adv-x="997" d="M61 -100q0 152 91.5 270t238.5 152l17 196h286v-407q-33 8 -73 8q-108 0 -185.5 -62t-77.5 -168q0 -68 38 -124t104 -56q65 0 101 50.5t36 117.5v25h299q6 -122 -51 -224t-159 -160.5t-224 -58.5q-189 0 -315 126t-126 315zM365 872q0 75 53.5 128t128.5 53t128.5 -53 t53.5 -128t-53.5 -129.5t-128.5 -54.5t-128.5 54.5t-53.5 129.5z" />
<glyph unicode="&#xc0;" horiz-adv-x="1384" d="M-18 0l602 1585h233l586 -1585h-322l-118 326h-537l-127 -326h-317zM414 1925l209 127l245 -344l-145 -90zM512 571h367l-193 562h-4z" />
<glyph unicode="&#xc1;" horiz-adv-x="1384" d="M-18 0l602 1585h233l586 -1585h-322l-118 326h-537l-127 -326h-317zM512 571h367l-193 562h-4zM526 1708l246 344l209 -127l-309 -307z" />
<glyph unicode="&#xc2;" horiz-adv-x="1384" d="M-18 0l602 1585h233l586 -1585h-322l-118 326h-537l-127 -326h-317zM344 1737l348 315l348 -315l-122 -135l-226 213l-225 -213zM512 571h367l-193 562h-4z" />
<glyph unicode="&#xc3;" horiz-adv-x="1384" d="M-18 0l602 1585h233l586 -1585h-322l-118 326h-537l-127 -326h-317zM303 1704q4 47 19.5 95t42 91.5t69 71t92.5 27.5q48 0 158 -43q14 -5 47 -19t52 -20t34 -6q8 0 16 1.5t13.5 3t12 6t10 6.5t9 9t8 10t7.5 12t6.5 11.5t7 13.5l6.5 13h170q-9 -53 -27 -101t-47 -92 t-73.5 -70t-99.5 -26q-46 0 -142 45t-135 45q-65 0 -88 -84h-168zM512 571h367l-193 562h-4z" />
<glyph unicode="&#xc4;" horiz-adv-x="1384" d="M-18 0l602 1585h233l586 -1585h-322l-118 326h-537l-127 -326h-317zM313 1864q0 68 48.5 116t115.5 48t115.5 -48t48.5 -116t-48.5 -116t-115.5 -48t-115.5 48t-48.5 116zM512 571h367l-193 562h-4zM745 1864q0 68 48.5 116t115.5 48t115.5 -48t48.5 -116t-48.5 -116 t-115.5 -48t-115.5 48t-48.5 116z" />
<glyph unicode="&#xc5;" horiz-adv-x="1384" d="M-18 0l602 1585h233l586 -1585h-322l-118 326h-537l-127 -326h-317zM487 1847q0 85 60 145t145 60t145 -60t60 -145q0 -86 -60 -146.5t-145 -60.5t-145 60.5t-60 146.5zM512 571h367l-193 562h-4zM608 1847q0 -35 24.5 -60.5t59.5 -25.5t59.5 25.5t24.5 60.5 q0 34 -24.5 59t-59.5 25t-59.5 -25t-24.5 -59z" />
<glyph unicode="&#xc6;" horiz-adv-x="1886" d="M-18 0l600 1544h761l95 -262h-512l125 -342h503l95 -262h-504l153 -416h512l93 -262h-826l-121 326h-534l-121 -326h-319zM510 571h364l-190 525h-4z" />
<glyph unicode="&#xc7;" horiz-adv-x="1230" d="M37 760q0 163 56 313.5t154.5 263.5t242 180.5t309.5 67.5q180 0 344 -90v-360q-63 77 -153 120t-187 43q-105 0 -192.5 -45.5t-144 -121t-87.5 -170t-31 -195.5q0 -132 53.5 -249.5t159 -194t240.5 -76.5q94 0 185.5 45t156.5 119v-359q-196 -92 -350 -92 q-159 0 -300.5 65.5t-241 175t-157 256t-57.5 304.5zM422 -344l201 303l188 -96l-238 -285z" />
<glyph unicode="&#xc8;" horiz-adv-x="999" d="M111 0v1544h798v-262h-497v-340h479v-262h-479v-418h497v-262h-798zM221 1925l209 127l246 -344l-146 -90z" />
<glyph unicode="&#xc9;" horiz-adv-x="999" d="M111 0v1544h798v-262h-497v-340h479v-262h-479v-418h497v-262h-798zM334 1708l246 344l208 -127l-309 -307z" />
<glyph unicode="&#xca;" horiz-adv-x="999" d="M111 0v1544h798v-262h-497v-340h479v-262h-479v-418h497v-262h-798zM152 1737l348 315l348 -315l-123 -135l-225 213l-226 -213z" />
<glyph unicode="&#xcb;" horiz-adv-x="999" d="M111 0v1544h798v-262h-497v-340h479v-262h-479v-418h497v-262h-798zM121 1864q0 68 48.5 116t115.5 48t115.5 -48t48.5 -116t-48.5 -116t-115.5 -48t-115.5 48t-48.5 116zM553 1864q0 68 48.5 116t115.5 48t115.5 -48t48.5 -116t-48.5 -116t-115.5 -48t-115.5 48 t-48.5 116z" />
<glyph unicode="&#xcc;" horiz-adv-x="520" d="M2 1925l209 127l246 -344l-146 -90zM111 0v1544h301v-1544h-301z" />
<glyph unicode="&#xcd;" horiz-adv-x="520" d="M63 1708l246 344l209 -127l-309 -307zM111 0v1544h301v-1544h-301z" />
<glyph unicode="&#xce;" horiz-adv-x="520" d="M-88 1737l348 315l348 -315l-123 -135l-225 213l-225 -213zM111 0v1544h301v-1544h-301z" />
<glyph unicode="&#xcf;" horiz-adv-x="520" d="M-119 1864q0 68 48.5 116t115.5 48t115.5 -48t48.5 -116t-48.5 -116t-115.5 -48t-115.5 48t-48.5 116zM111 0v1544h301v-1544h-301zM313 1864q0 68 48.5 116t115.5 48t115.5 -48t48.5 -116t-48.5 -116t-115.5 -48t-115.5 48t-48.5 116z" />
<glyph unicode="&#xd0;" horiz-adv-x="1323" d="M-37 690v246h148v608h430q219 0 389.5 -101.5t263 -277.5t92.5 -395q0 -161 -55.5 -303t-152.5 -245t-237 -162.5t-302 -59.5h-428v690h-148zM412 262h49q136 0 236 36.5t160.5 105t89 160t28.5 208.5q0 253 -129 381.5t-385 128.5h-49v-346h231v-246h-231v-428z" />
<glyph unicode="&#xd1;" horiz-adv-x="1554" d="M111 0v1585h217l813 -1079h4v1038h301v-1575h-217l-813 1080h-4v-1049h-301zM389 1704q4 47 19.5 95t42 91.5t69 71t92.5 27.5q48 0 158 -43q14 -5 47 -19t52 -20t34 -6q8 0 16 1.5t13.5 3t12 6t10 6.5t9 9t8 10t7.5 12t6.5 11.5t7 13.5l6.5 13h170q-9 -53 -27 -101 t-47 -92t-73.5 -70t-99.5 -26q-46 0 -142 45t-135 45q-65 0 -88 -84h-168z" />
<glyph unicode="&#xd2;" horiz-adv-x="1601" d="M37 774q0 229 94 413t269 291t401 107t401 -107t269 -291t94 -413q0 -170 -54 -319t-151 -259t-241.5 -173.5t-317.5 -63.5t-317.5 63.5t-241.5 173.5t-151 259t-54 319zM348 786q0 -75 14.5 -147t49 -142t85.5 -123t129.5 -85.5t174.5 -32.5t174.5 32.5t129 85.5t85 123 t49 142t14.5 147q0 95 -31 184t-87.5 160.5t-143.5 114.5t-190 43q-83 0 -156 -28t-126.5 -76.5t-92.5 -112.5t-58.5 -137t-19.5 -148zM522 1925l209 127l246 -344l-146 -90z" />
<glyph unicode="&#xd3;" horiz-adv-x="1601" d="M37 774q0 229 94 413t269 291t401 107t401 -107t269 -291t94 -413q0 -170 -54 -319t-151 -259t-241.5 -173.5t-317.5 -63.5t-317.5 63.5t-241.5 173.5t-151 259t-54 319zM348 786q0 -75 14.5 -147t49 -142t85.5 -123t129.5 -85.5t174.5 -32.5t174.5 32.5t129 85.5t85 123 t49 142t14.5 147q0 95 -31 184t-87.5 160.5t-143.5 114.5t-190 43q-83 0 -156 -28t-126.5 -76.5t-92.5 -112.5t-58.5 -137t-19.5 -148zM635 1708l246 344l209 -127l-310 -307z" />
<glyph unicode="&#xd4;" horiz-adv-x="1601" d="M37 774q0 229 94 413t269 291t401 107t401 -107t269 -291t94 -413q0 -170 -54 -319t-151 -259t-241.5 -173.5t-317.5 -63.5t-317.5 63.5t-241.5 173.5t-151 259t-54 319zM348 786q0 -75 14.5 -147t49 -142t85.5 -123t129.5 -85.5t174.5 -32.5t174.5 32.5t129 85.5t85 123 t49 142t14.5 147q0 95 -31 184t-87.5 160.5t-143.5 114.5t-190 43q-83 0 -156 -28t-126.5 -76.5t-92.5 -112.5t-58.5 -137t-19.5 -148zM453 1737l348 315l348 -315l-123 -135l-225 213l-226 -213z" />
<glyph unicode="&#xd5;" horiz-adv-x="1601" d="M37 774q0 229 94 413t269 291t401 107t401 -107t269 -291t94 -413q0 -170 -54 -319t-151 -259t-241.5 -173.5t-317.5 -63.5t-317.5 63.5t-241.5 173.5t-151 259t-54 319zM348 786q0 -75 14.5 -147t49 -142t85.5 -123t129.5 -85.5t174.5 -32.5t174.5 32.5t129 85.5t85 123 t49 142t14.5 147q0 95 -31 184t-87.5 160.5t-143.5 114.5t-190 43q-83 0 -156 -28t-126.5 -76.5t-92.5 -112.5t-58.5 -137t-19.5 -148zM412 1704q4 47 19.5 95t42 91.5t69 71t92.5 27.5q48 0 158 -43q14 -5 47 -19t52 -20t34 -6q8 0 16 1.5t13.5 3t12 6t10 6.5t9 9t8 10 t7.5 12t6.5 11.5t7 13.5l6.5 13h170q-9 -53 -27 -101t-47 -92t-74 -70t-100 -26q-45 0 -141 45t-135 45q-65 0 -88 -84h-168z" />
<glyph unicode="&#xd6;" horiz-adv-x="1601" d="M37 774q0 229 94 413t269 291t401 107t401 -107t269 -291t94 -413q0 -170 -54 -319t-151 -259t-241.5 -173.5t-317.5 -63.5t-317.5 63.5t-241.5 173.5t-151 259t-54 319zM348 786q0 -75 14.5 -147t49 -142t85.5 -123t129.5 -85.5t174.5 -32.5t174.5 32.5t129 85.5t85 123 t49 142t14.5 147q0 95 -31 184t-87.5 160.5t-143.5 114.5t-190 43q-83 0 -156 -28t-126.5 -76.5t-92.5 -112.5t-58.5 -137t-19.5 -148zM422 1864q0 68 48 116t116 48t116 -48t48 -116t-48 -116t-116 -48t-116 48t-48 116zM854 1864q0 68 48 116t116 48t116 -48t48 -116 t-48 -116t-116 -48t-116 48t-48 116z" />
<glyph unicode="&#xd7;" d="M68 172l354 352l-354 353l172 172l354 -355l350 355l172 -172l-352 -353l352 -352l-172 -172l-352 354l-352 -354z" />
<glyph unicode="&#xd8;" horiz-adv-x="1601" d="M-8 68l192 202q-147 210 -147 504q0 229 94 413t269 291t401 107q276 0 475 -160l176 185l158 -140l-191 -200q146 -210 146 -496q0 -170 -54 -319t-151 -259t-241.5 -173.5t-317.5 -63.5q-275 0 -473 158l-185 -195zM348 786q0 -151 60 -280l655 694q-112 88 -262 88 q-83 0 -156 -28t-126.5 -76.5t-92.5 -112.5t-58.5 -137t-19.5 -148zM539 340q108 -84 262 -84q96 0 174.5 32.5t129 85.5t85 123t49 142t14.5 147q0 135 -57 246z" />
<glyph unicode="&#xd9;" horiz-adv-x="1351" d="M102 621v923h301v-864q0 -48 1.5 -85.5t8 -88t17.5 -87.5t31.5 -76.5t48.5 -64.5t70.5 -41t95.5 -16t95.5 16t70.5 41t48.5 64.5t31.5 76.5t17 87.5t7.5 87.5t1.5 86v864h301v-923q0 -116 -19.5 -214t-63 -181.5t-109.5 -142t-162.5 -91.5t-218.5 -33t-218.5 33 t-162.5 91.5t-110 142t-63.5 181.5t-19.5 214zM346 1925l209 127l246 -344l-146 -90z" />
<glyph unicode="&#xda;" horiz-adv-x="1351" d="M102 621v923h301v-864q0 -48 1.5 -85.5t8 -88t17.5 -87.5t31.5 -76.5t48.5 -64.5t70.5 -41t95.5 -16t95.5 16t70.5 41t48.5 64.5t31.5 76.5t17 87.5t7.5 87.5t1.5 86v864h301v-923q0 -116 -19.5 -214t-63 -181.5t-109.5 -142t-162.5 -91.5t-218.5 -33t-218.5 33 t-162.5 91.5t-110 142t-63.5 181.5t-19.5 214zM551 1708l246 344l209 -127l-310 -307z" />
<glyph unicode="&#xdb;" horiz-adv-x="1351" d="M102 621v923h301v-864q0 -48 1.5 -85.5t8 -88t17.5 -87.5t31.5 -76.5t48.5 -64.5t70.5 -41t95.5 -16t95.5 16t70.5 41t48.5 64.5t31.5 76.5t17 87.5t7.5 87.5t1.5 86v864h301v-923q0 -116 -19.5 -214t-63 -181.5t-109.5 -142t-162.5 -91.5t-218.5 -33t-218.5 33 t-162.5 91.5t-110 142t-63.5 181.5t-19.5 214zM328 1737l348 315l348 -315l-123 -135l-225 213l-225 -213z" />
<glyph unicode="&#xdc;" horiz-adv-x="1351" d="M102 621v923h301v-864q0 -48 1.5 -85.5t8 -88t17.5 -87.5t31.5 -76.5t48.5 -64.5t70.5 -41t95.5 -16t95.5 16t70.5 41t48.5 64.5t31.5 76.5t17 87.5t7.5 87.5t1.5 86v864h301v-923q0 -116 -19.5 -214t-63 -181.5t-109.5 -142t-162.5 -91.5t-218.5 -33t-218.5 33 t-162.5 91.5t-110 142t-63.5 181.5t-19.5 214zM313 1864q0 68 48.5 116t115.5 48t115.5 -48t48.5 -116t-48.5 -116t-115.5 -48t-115.5 48t-48.5 116zM745 1864q0 68 48.5 116t115.5 48t115.5 -48t48.5 -116t-48.5 -116t-115.5 -48t-115.5 48t-48.5 116z" />
<glyph unicode="&#xdd;" horiz-adv-x="1202" d="M-33 1544h350l271 -536l295 536h352l-487 -835v-709h-302v709zM508 1708l246 344l209 -127l-310 -307z" />
<glyph unicode="&#xde;" horiz-adv-x="1081" d="M111 0v1544h301v-246h108q535 0 535 -479q0 -243 -127 -365t-367 -122h-149v-332h-301zM412 582h61q72 0 119 9.5t84.5 34.5t54.5 73t17 122q0 72 -19.5 119t-60 70t-87 31t-116.5 8h-53v-467z" />
<glyph unicode="&#xdf;" horiz-adv-x="1148" d="M102 0v1237q0 118 25 211t77.5 164.5t142 110t210.5 38.5q200 0 325.5 -123t125.5 -323q0 -209 -156 -332q90 -39 151 -113t88 -162t27 -188q0 -251 -154.5 -402t-406.5 -151h-41v250q132 -4 216.5 88.5t84.5 226.5q0 136 -82.5 222.5t-218.5 87.5v241q102 -1 159.5 62 t57.5 166q0 83 -48 141.5t-130 58.5q-31 0 -56 -8.5t-42 -27t-29.5 -37.5t-20 -49.5t-12 -53.5t-6 -59.5t-1.5 -56t0.5 -55t0.5 -46.5v-1118h-287z" />
<glyph unicode="&#xe0;" horiz-adv-x="1157" d="M31 508q0 136 53 255t159.5 197t245.5 78q79 0 154 -33t127 -94v95h283v-1006h-283v92h-4q-45 -59 -118.5 -92t-153.5 -33q-107 0 -196 46t-146.5 122.5t-89 173t-31.5 199.5zM270 1458l209 127l246 -344l-145 -90zM322 504q0 -69 28 -133t83.5 -107t125.5 -43 q105 0 172.5 87.5t67.5 195.5t-67.5 194t-172.5 86t-171 -86t-66 -194z" />
<glyph unicode="&#xe1;" horiz-adv-x="1157" d="M31 508q0 136 53 255t159.5 197t245.5 78q79 0 154 -33t127 -94v95h283v-1006h-283v92h-4q-45 -59 -118.5 -92t-153.5 -33q-107 0 -196 46t-146.5 122.5t-89 173t-31.5 199.5zM322 504q0 -69 28 -133t83.5 -107t125.5 -43q105 0 172.5 87.5t67.5 195.5t-67.5 194 t-172.5 86t-171 -86t-66 -194zM434 1241l246 344l209 -127l-309 -307z" />
<glyph unicode="&#xe2;" horiz-adv-x="1157" d="M31 508q0 136 53 255t159.5 197t245.5 78q79 0 154 -33t127 -94v95h283v-1006h-283v92h-4q-45 -59 -118.5 -92t-153.5 -33q-107 0 -196 46t-146.5 122.5t-89 173t-31.5 199.5zM231 1270l349 315l348 -315l-123 -135l-225 213l-226 -213zM322 504q0 -69 28 -133t83.5 -107 t125.5 -43q105 0 172.5 87.5t67.5 195.5t-67.5 194t-172.5 86t-171 -86t-66 -194z" />
<glyph unicode="&#xe3;" horiz-adv-x="1157" d="M31 508q0 136 53 255t159.5 197t245.5 78q79 0 154 -33t127 -94v95h283v-1006h-283v92h-4q-45 -59 -118.5 -92t-153.5 -33q-107 0 -196 46t-146.5 122.5t-89 173t-31.5 199.5zM190 1237q4 47 20 95t42.5 91.5t69 71t92.5 27.5q47 0 157 -43q13 -5 47 -19t53 -20t34 -6 q8 0 16 1.5t13.5 3t12 6t10 6.5t9 9t8 10t7.5 12t6.5 11.5t7 13.5l6.5 13h170q-9 -53 -27 -101t-47 -92t-74 -70t-100 -26q-45 0 -141 45t-136 45q-65 0 -88 -84h-168zM322 504q0 -69 28 -133t83.5 -107t125.5 -43q105 0 172.5 87.5t67.5 195.5t-67.5 194t-172.5 86 t-171 -86t-66 -194z" />
<glyph unicode="&#xe4;" horiz-adv-x="1157" d="M31 508q0 136 53 255t159.5 197t245.5 78q79 0 154 -33t127 -94v95h283v-1006h-283v92h-4q-45 -59 -118.5 -92t-153.5 -33q-107 0 -196 46t-146.5 122.5t-89 173t-31.5 199.5zM201 1397q0 67 48.5 115.5t115.5 48.5t115 -48t48 -116t-48 -116t-115 -48t-115.5 48.5 t-48.5 115.5zM322 504q0 -69 28 -133t83.5 -107t125.5 -43q105 0 172.5 87.5t67.5 195.5t-67.5 194t-172.5 86t-171 -86t-66 -194zM633 1397q0 67 48.5 115.5t115.5 48.5t115.5 -48.5t48.5 -115.5t-48.5 -115.5t-115.5 -48.5t-115.5 48.5t-48.5 115.5z" />
<glyph unicode="&#xe5;" horiz-adv-x="1157" d="M31 508q0 136 53 255t159.5 197t245.5 78q79 0 154 -33t127 -94v95h283v-1006h-283v92h-4q-45 -59 -118.5 -92t-153.5 -33q-107 0 -196 46t-146.5 122.5t-89 173t-31.5 199.5zM322 504q0 -69 28 -133t83.5 -107t125.5 -43q105 0 172.5 87.5t67.5 195.5t-67.5 194 t-172.5 86t-171 -86t-66 -194zM375 1380q0 85 60 145t145 60t144.5 -60t59.5 -145q0 -86 -59.5 -146t-144.5 -60t-145 60t-60 146zM496 1380q0 -35 24.5 -60.5t59.5 -25.5t59.5 25.5t24.5 60.5q0 34 -24.5 59t-59.5 25t-59.5 -25t-24.5 -59z" />
<glyph unicode="&#xe6;" horiz-adv-x="1622" d="M23 297q0 105 55 181.5t140 112.5t188 36q130 0 233 -56v33q0 107 -61.5 161t-169.5 54q-125 0 -246 -45v223q160 41 280 41q101 0 192.5 -37.5t137.5 -115.5q58 74 149.5 113.5t192.5 39.5q120 0 213 -42.5t150 -117.5t85.5 -172.5t28.5 -213.5v-35h-661 q0 -51 10.5 -96.5t32 -86t61.5 -64.5t94 -24q126 0 193 138l264 -43q-52 -149 -174.5 -231.5t-282.5 -82.5q-114 0 -209 41t-149 125q-61 -80 -157.5 -123t-200.5 -43q-105 0 -191 34.5t-142 111t-56 184.5zM297 307q0 -66 50.5 -101.5t119.5 -35.5q63 0 116.5 39t53.5 100 q0 65 -56.5 100t-125.5 35q-65 0 -111.5 -37t-46.5 -100zM934 635h383q-11 83 -62 143t-129 60q-81 0 -131 -59t-61 -144z" />
<glyph unicode="&#xe7;" horiz-adv-x="862" d="M31 500q0 148 66.5 271t187 195t268.5 72q130 0 233 -63v-277q-99 99 -211 99q-115 0 -184 -90.5t-69 -208.5q0 -122 72 -205.5t192 -83.5q114 0 200 96v-276q-112 -62 -247 -62q-145 0 -262.5 73t-181.5 194.5t-64 265.5zM238 -344l200 303l189 -96l-238 -285z" />
<glyph unicode="&#xe8;" horiz-adv-x="1026" d="M31 494q0 116 31 214t90 172t153 116t213 42q120 0 213 -42.5t150 -117.5t85.5 -172.5t28.5 -213.5v-35h-661q0 -51 10.5 -96.5t32 -86t61.5 -64.5t94 -24q126 0 193 138l264 -43q-52 -149 -174.5 -231.5t-282.5 -82.5q-115 0 -209.5 39.5t-158 109.5t-98.5 167t-35 211z M205 1458l209 127l245 -344l-145 -90zM342 635h383q-11 84 -61.5 143.5t-128.5 59.5q-81 0 -131.5 -59t-61.5 -144z" />
<glyph unicode="&#xe9;" horiz-adv-x="1026" d="M31 494q0 116 31 214t90 172t153 116t213 42q120 0 213 -42.5t150 -117.5t85.5 -172.5t28.5 -213.5v-35h-661q0 -51 10.5 -96.5t32 -86t61.5 -64.5t94 -24q126 0 193 138l264 -43q-52 -149 -174.5 -231.5t-282.5 -82.5q-115 0 -209.5 39.5t-158 109.5t-98.5 167t-35 211z M342 635h383q-11 84 -61.5 143.5t-128.5 59.5q-81 0 -131.5 -59t-61.5 -144zM369 1241l245 344l209 -127l-309 -307z" />
<glyph unicode="&#xea;" horiz-adv-x="1026" d="M31 494q0 116 31 214t90 172t153 116t213 42q120 0 213 -42.5t150 -117.5t85.5 -172.5t28.5 -213.5v-35h-661q0 -51 10.5 -96.5t32 -86t61.5 -64.5t94 -24q126 0 193 138l264 -43q-52 -149 -174.5 -231.5t-282.5 -82.5q-115 0 -209.5 39.5t-158 109.5t-98.5 167t-35 211z M166 1270l348 315l348 -315l-123 -135l-225 213l-225 -213zM342 635h383q-11 84 -61.5 143.5t-128.5 59.5q-81 0 -131.5 -59t-61.5 -144z" />
<glyph unicode="&#xeb;" horiz-adv-x="1026" d="M31 494q0 116 31 214t90 172t153 116t213 42q120 0 213 -42.5t150 -117.5t85.5 -172.5t28.5 -213.5v-35h-661q0 -51 10.5 -96.5t32 -86t61.5 -64.5t94 -24q126 0 193 138l264 -43q-52 -149 -174.5 -231.5t-282.5 -82.5q-115 0 -209.5 39.5t-158 109.5t-98.5 167t-35 211z M135 1397q0 67 48.5 115.5t115.5 48.5t115.5 -48.5t48.5 -115.5t-48.5 -115.5t-115.5 -48.5t-115.5 48.5t-48.5 115.5zM342 635h383q-11 84 -61.5 143.5t-128.5 59.5q-81 0 -131.5 -59t-61.5 -144zM567 1397q0 67 48.5 115.5t115.5 48.5t115.5 -48.5t48.5 -115.5 t-48.5 -115.5t-115.5 -48.5t-115.5 48.5t-48.5 115.5z" />
<glyph unicode="&#xec;" horiz-adv-x="518" d="M-20 1458l208 127l246 -344l-145 -90zM117 0v1006h286v-1006h-286z" />
<glyph unicode="&#xed;" horiz-adv-x="518" d="M82 1241l246 344l209 -127l-310 -307zM117 0v1006h286v-1006h-286z" />
<glyph unicode="&#xee;" horiz-adv-x="518" d="M-88 1270l348 315l348 -315l-123 -135l-225 213l-225 -213zM117 0v1006h286v-1006h-286z" />
<glyph unicode="&#xef;" horiz-adv-x="518" d="M-119 1397q0 67 48.5 115.5t115.5 48.5t115.5 -48.5t48.5 -115.5t-48.5 -115.5t-115.5 -48.5t-115.5 48.5t-48.5 115.5zM117 0v1006h286v-1006h-286zM313 1397q0 67 48.5 115.5t115.5 48.5t115.5 -48.5t48.5 -115.5t-48.5 -115.5t-115.5 -48.5t-115.5 48.5t-48.5 115.5z " />
<glyph unicode="&#xf0;" horiz-adv-x="1122" d="M33 504q0 118 39 217.5t106.5 166.5t157.5 104.5t192 37.5q73 0 164 -31q-43 86 -90.5 156t-126.5 156l-246 -158l-123 125l246 156q-101 98 -202 176l202 153q119 -92 217 -188l246 156l123 -123l-246 -158q44 -48 70.5 -79t73 -92t77 -111.5t67.5 -126.5t58.5 -148.5 t36.5 -166t15 -191.5q0 -129 -35.5 -231t-90.5 -163.5t-128 -102t-140.5 -56t-134.5 -15.5q-107 0 -202.5 37t-168 104.5t-115 170t-42.5 225.5zM324 502q0 -108 66 -194.5t171 -86.5t171.5 86.5t66.5 194.5q0 111 -66.5 196.5t-171.5 85.5t-171 -85.5t-66 -196.5z" />
<glyph unicode="&#xf1;" horiz-adv-x="1105" d="M102 0v1006h287v-93h4q82 125 262 125q349 0 349 -424v-614h-287v532q0 123 -13 170q-29 107 -143 107q-35 0 -63 -11.5t-45.5 -28t-30.5 -45.5t-19 -52.5t-9.5 -60t-4 -57.5t-0.5 -56v-498h-287zM164 1237q4 47 19.5 95t42 91.5t69 71t92.5 27.5q48 0 158 -43 q14 -5 47 -19t52 -20t34 -6q8 0 16 1.5t13.5 3t12 6t10 6.5t9 9t8 10t7.5 12t6.5 11.5t7 13.5l6.5 13h170q-9 -53 -27 -101t-47 -92t-74 -70t-100 -26q-45 0 -141 45t-135 45q-65 0 -88 -84h-168z" />
<glyph unicode="&#xf2;" horiz-adv-x="1122" d="M33 502q0 236 147 386t381 150t381.5 -150.5t147.5 -385.5t-147 -385t-382 -150t-381.5 150t-146.5 385zM252 1458l209 127l246 -344l-146 -90zM324 502q0 -108 66 -194.5t171 -86.5t171.5 86.5t66.5 194.5q0 111 -66.5 196.5t-171.5 85.5t-171 -85.5t-66 -196.5z" />
<glyph unicode="&#xf3;" horiz-adv-x="1122" d="M33 502q0 236 147 386t381 150t381.5 -150.5t147.5 -385.5t-147 -385t-382 -150t-381.5 150t-146.5 385zM324 502q0 -108 66 -194.5t171 -86.5t171.5 86.5t66.5 194.5q0 111 -66.5 196.5t-171.5 85.5t-171 -85.5t-66 -196.5zM416 1241l246 344l208 -127l-309 -307z" />
<glyph unicode="&#xf4;" horiz-adv-x="1122" d="M33 502q0 236 147 386t381 150t381.5 -150.5t147.5 -385.5t-147 -385t-382 -150t-381.5 150t-146.5 385zM213 1270l348 315l348 -315l-123 -135l-225 213l-225 -213zM324 502q0 -108 66 -194.5t171 -86.5t171.5 86.5t66.5 194.5q0 111 -66.5 196.5t-171.5 85.5 t-171 -85.5t-66 -196.5z" />
<glyph unicode="&#xf5;" horiz-adv-x="1122" d="M33 502q0 236 147 386t381 150t381.5 -150.5t147.5 -385.5t-147 -385t-382 -150t-381.5 150t-146.5 385zM172 1237q4 47 19.5 95t42 91.5t69 71t92.5 27.5q48 0 158 -43q14 -5 47 -19t52 -20t34 -6q8 0 16 1.5t13.5 3t12 6t10 6.5t9 9t8 10t7.5 12t6.5 11.5t7 13.5 l6.5 13h170q-9 -53 -27 -101t-47 -92t-73.5 -70t-99.5 -26q-46 0 -142 45t-135 45q-65 0 -88 -84h-168zM324 502q0 -108 66 -194.5t171 -86.5t171.5 86.5t66.5 194.5q0 111 -66.5 196.5t-171.5 85.5t-171 -85.5t-66 -196.5z" />
<glyph unicode="&#xf6;" horiz-adv-x="1122" d="M33 502q0 236 147 386t381 150t381.5 -150.5t147.5 -385.5t-147 -385t-382 -150t-381.5 150t-146.5 385zM182 1397q0 67 48 115.5t116 48.5t116 -48.5t48 -115.5t-48 -115.5t-116 -48.5t-116 48.5t-48 115.5zM324 502q0 -108 66 -194.5t171 -86.5t171.5 86.5t66.5 194.5 q0 111 -66.5 196.5t-171.5 85.5t-171 -85.5t-66 -196.5zM614 1397q0 67 48 115.5t116 48.5t116 -48.5t48 -115.5t-48 -115.5t-116 -48.5t-116 48.5t-48 115.5z" />
<glyph unicode="&#xf7;" d="M68 403v242h1048v-242h-1048zM422 129q0 69 50 119.5t120 50.5t120 -50.5t50 -119.5q0 -71 -50 -120.5t-120 -49.5t-120 49.5t-50 120.5zM422 920q0 69 50 119.5t120 50.5t120 -50.5t50 -119.5q0 -70 -50 -120t-120 -50t-120 50t-50 120z" />
<glyph unicode="&#xf8;" horiz-adv-x="1155" d="M-12 20l149 148q-104 135 -104 334q0 236 147 386t381 150q203 0 340 -112l154 151l112 -102l-163 -164q86 -134 86 -309q0 -235 -147 -385t-382 -150q-182 0 -313 94l-148 -145zM324 502q0 -67 28 -131l359 352q-64 61 -150 61q-105 0 -171 -85.5t-66 -196.5zM436 262 q54 -41 125 -41q105 0 171.5 86.5t66.5 194.5q0 46 -17 102z" />
<glyph unicode="&#xf9;" horiz-adv-x="1095" d="M96 414v592h287v-545q0 -39 3 -70.5t13 -67t27.5 -59.5t48 -39.5t72.5 -15.5t72.5 15.5t48 39.5t27.5 59.5t13 67t3 70.5v545h286v-592q0 -220 -113.5 -333.5t-336.5 -113.5q-224 0 -337.5 113.5t-113.5 333.5zM240 1458l209 127l245 -344l-145 -90z" />
<glyph unicode="&#xfa;" horiz-adv-x="1095" d="M96 414v592h287v-545q0 -39 3 -70.5t13 -67t27.5 -59.5t48 -39.5t72.5 -15.5t72.5 15.5t48 39.5t27.5 59.5t13 67t3 70.5v545h286v-592q0 -220 -113.5 -333.5t-336.5 -113.5q-224 0 -337.5 113.5t-113.5 333.5zM403 1241l246 344l209 -127l-309 -307z" />
<glyph unicode="&#xfb;" horiz-adv-x="1095" d="M96 414v592h287v-545q0 -39 3 -70.5t13 -67t27.5 -59.5t48 -39.5t72.5 -15.5t72.5 15.5t48 39.5t27.5 59.5t13 67t3 70.5v545h286v-592q0 -220 -113.5 -333.5t-336.5 -113.5q-224 0 -337.5 113.5t-113.5 333.5zM201 1270l348 315l348 -315l-123 -135l-225 213l-225 -213z " />
<glyph unicode="&#xfc;" horiz-adv-x="1095" d="M96 414v592h287v-545q0 -39 3 -70.5t13 -67t27.5 -59.5t48 -39.5t72.5 -15.5t72.5 15.5t48 39.5t27.5 59.5t13 67t3 70.5v545h286v-592q0 -220 -113.5 -333.5t-336.5 -113.5q-224 0 -337.5 113.5t-113.5 333.5zM170 1397q0 67 48 115.5t116 48.5t116 -48.5t48 -115.5 t-48 -115.5t-116 -48.5t-116 48.5t-48 115.5zM602 1397q0 67 48 115.5t116 48.5t116 -48.5t48 -115.5t-48 -115.5t-116 -48.5t-116 48.5t-48 115.5z" />
<glyph unicode="&#xfd;" horiz-adv-x="1064" d="M-37 1006h326l239 -572l258 572h320l-731 -1543h-316l332 691zM418 1241l246 344l208 -127l-309 -307z" />
<glyph unicode="&#xfe;" horiz-adv-x="1157" d="M102 -537v2274h287v-824q49 58 124 91.5t155 33.5q103 0 191 -45.5t145.5 -120.5t89.5 -169.5t32 -194.5q0 -104 -31.5 -200.5t-88.5 -172.5t-146.5 -122t-197.5 -46q-79 0 -153 33.5t-116 93.5h-4v-631h-287zM360 504q0 -108 66.5 -195.5t171.5 -87.5t171.5 87.5 t66.5 195.5t-66.5 194t-171.5 86t-171.5 -86t-66.5 -194z" />
<glyph unicode="&#xff;" horiz-adv-x="1064" d="M-37 1006h326l239 -572l258 572h320l-731 -1543h-316l332 691zM170 1397q0 67 48 115.5t116 48.5t116 -48.5t48 -115.5t-48 -115.5t-116 -48.5t-116 48.5t-48 115.5zM602 1397q0 67 48 115.5t116 48.5t116 -48.5t48 -115.5t-48 -115.5t-116 -48.5t-116 48.5t-48 115.5z " />
<glyph unicode="&#x152;" horiz-adv-x="2127" d="M37 768q0 155 55.5 302.5t151.5 261.5t236 183.5t298 69.5q137 0 262 -56t207 -159h4v174h787v-262h-488v-342h465v-262h-465v-416h488v-262h-787v174q-188 -215 -473 -215q-156 0 -295.5 70t-236 183.5t-153 259.5t-56.5 296zM324 768q0 -95 32 -186.5t88.5 -164 t142.5 -117t185 -44.5q132 0 238 76t160.5 192t54.5 244q0 97 -32.5 190t-90 166.5t-144 118.5t-186.5 45q-99 0 -185 -45t-142.5 -118.5t-88.5 -166.5t-32 -190z" />
<glyph unicode="&#x153;" horiz-adv-x="1787" d="M29 502q0 236 147 386t381 150q221 0 367 -168q61 85 154.5 126.5t203.5 41.5q120 0 213 -42.5t150 -117.5t85.5 -172.5t28.5 -213.5v-35h-661q0 -51 10.5 -96.5t32 -86t61.5 -64.5t94 -24q126 0 193 138l264 -43q-52 -149 -174.5 -231.5t-282.5 -82.5q-253 0 -372 174 q-65 -87 -161.5 -130.5t-205.5 -43.5q-235 0 -381.5 150t-146.5 385zM319 502q0 -108 66.5 -194.5t171.5 -86.5t171.5 86.5t66.5 194.5q0 111 -66.5 196.5t-171.5 85.5t-171.5 -85.5t-66.5 -196.5zM1096 635h383q-11 83 -62 143t-129 60q-81 0 -131 -59t-61 -144z" />
<glyph unicode="&#x178;" horiz-adv-x="1202" d="M-33 1544h350l271 -536l295 536h352l-487 -835v-709h-302v709zM223 1864q0 68 48.5 116t115.5 48t115.5 -48t48.5 -116t-48.5 -116t-115.5 -48t-115.5 48t-48.5 116zM655 1864q0 68 48.5 116t115.5 48t115.5 -48t48.5 -116t-48.5 -116t-115.5 -48t-115.5 48t-48.5 116z " />
<glyph unicode="&#x2c6;" horiz-adv-x="819" d="M61 1270l349 315l348 -315l-123 -135l-225 213l-226 -213z" />
<glyph unicode="&#x2dc;" horiz-adv-x="819" d="M20 1237q4 47 20 95t42.5 91.5t69 71t92.5 27.5q47 0 157 -43q13 -5 47 -19t53 -20t34 -6q8 0 16 1.5t13.5 3t12 6t10 6.5t9 9t8 10t7.5 12t6.5 11.5t7 13.5l6.5 13h170q-9 -53 -27 -101t-47 -92t-74 -70t-100 -26q-45 0 -141 45t-136 45q-65 0 -88 -84h-168z" />
<glyph unicode="&#x2000;" horiz-adv-x="1026" />
<glyph unicode="&#x2001;" horiz-adv-x="2052" />
<glyph unicode="&#x2002;" horiz-adv-x="1026" />
<glyph unicode="&#x2003;" horiz-adv-x="2052" />
<glyph unicode="&#x2004;" horiz-adv-x="684" />
<glyph unicode="&#x2005;" horiz-adv-x="513" />
<glyph unicode="&#x2006;" horiz-adv-x="342" />
<glyph unicode="&#x2007;" horiz-adv-x="342" />
<glyph unicode="&#x2008;" horiz-adv-x="256" />
<glyph unicode="&#x2009;" horiz-adv-x="410" />
<glyph unicode="&#x200a;" horiz-adv-x="114" />
<glyph unicode="&#x2010;" horiz-adv-x="675" d="M88 539v235h500v-235h-500z" />
<glyph unicode="&#x2011;" horiz-adv-x="675" d="M88 539v235h500v-235h-500z" />
<glyph unicode="&#x2012;" horiz-adv-x="675" d="M88 539v235h500v-235h-500z" />
<glyph unicode="&#x2013;" horiz-adv-x="1024" d="M0 539v235h1024v-235h-1024z" />
<glyph unicode="&#x2014;" horiz-adv-x="2048" d="M266 539v235h1516v-235h-1516z" />
<glyph unicode="&#x2018;" horiz-adv-x="606" d="M61 969l295 616l191 -22l-221 -623z" />
<glyph unicode="&#x2019;" horiz-adv-x="606" d="M61 963l224 622l262 -31l-295 -614z" />
<glyph unicode="&#x201a;" horiz-adv-x="606" d="M61 -303l224 622l262 -28l-295 -617z" />
<glyph unicode="&#x201c;" horiz-adv-x="999" d="M61 969l295 616l191 -22l-221 -623zM453 969l295 616l190 -22l-221 -623z" />
<glyph unicode="&#x201d;" horiz-adv-x="999" d="M61 963l224 622l262 -31l-295 -614zM453 963l223 622l262 -31l-295 -614z" />
<glyph unicode="&#x201e;" horiz-adv-x="999" d="M61 -303l224 622l262 -28l-295 -617zM453 -303l223 622l262 -28l-295 -617z" />
<glyph unicode="&#x2022;" horiz-adv-x="1181" d="M205 772q-1 161 111.5 274t273.5 113t274 -113t113 -274q0 -160 -114 -272.5t-273 -112.5t-272 112t-113 273z" />
<glyph unicode="&#x2026;" horiz-adv-x="2048" d="M160 150q0 75 53.5 127.5t128.5 52.5t128.5 -52.5t53.5 -127.5t-53.5 -130t-128.5 -55t-128.5 55t-53.5 130zM842 143q0 75 53.5 128t128.5 53t128.5 -53t53.5 -128t-53.5 -129.5t-128.5 -54.5t-128.5 54.5t-53.5 129.5zM1524 143q0 75 53.5 128t128.5 53t128.5 -53 t53.5 -128t-53.5 -129.5t-128.5 -54.5t-128.5 54.5t-53.5 129.5z" />
<glyph unicode="&#x202f;" horiz-adv-x="410" />
<glyph unicode="&#x2039;" horiz-adv-x="643" d="M37 655l325 498l177 -115l-254 -383l256 -372l-179 -119z" />
<glyph unicode="&#x203a;" horiz-adv-x="643" d="M102 283l256 372l-254 383l177 115l325 -498l-325 -491z" />
<glyph unicode="&#x205f;" horiz-adv-x="513" />
<glyph unicode="&#x20ac;" d="M41 500l68 209h86q-5 45 -5 71q0 17 5 62h-154l68 209h104q41 257 177.5 394.5t375.5 137.5q108 0 196 -23t130 -51v-266q-98 86 -285 86q-135 0 -211 -68.5t-98 -209.5h526l-70 -209h-481q-2 -18 -2 -62q0 -53 2 -71h434l-69 -209h-340q43 -289 311 -289q188 0 283 88 v-272q-38 -25 -123 -45.5t-203 -20.5q-470 0 -549 539h-176z" />
<glyph unicode="&#x2122;" horiz-adv-x="2048" d="M86 1391v153h696v-153h-260v-709h-176v709h-260zM940 682v862h305l201 -563h4l209 563h303v-862h-176v686h-4l-250 -686h-170l-242 686h-4v-686h-176z" />
<glyph unicode="&#x25fc;" horiz-adv-x="1003" d="M0 0v1004h1004v-1004h-1004z" />
</font>
</defs>
</svg>
